#TITLE:The Last Journey Home;
#SUBTITLE:;
#ARTIST:Dragonforce;
#TITLETRANSLIT:;
#SUBTITLETRANSLIT:;
#ARTISTTRANSLIT:;
#CREDIT:;
#BANNER:The Last Journey Home.jpg;
#BACKGROUND:The Last Journey Home-bg.jpg;
#LYRICSPATH:;
#CDTITLE:marth.png;
#MUSIC:The Last Journey Home.mp3;
#OFFSET:1.080;
#SAMPLESTART:126.000;
#SAMPLELENGTH:16.000;
#SELECTABLE:YES;
#DISPLAYBPM:200.000;
#BPMS:0.000=150.000,207.000=75.000,247.000=150.000,327.167=75.000,327.167=93.000,332.000=179.000,348.000=180.000,380.000=181.500,392.000=199.840,448.000=200.000,488.000=200.000,584.000=180.000,936.000=90.000,964.500=75.000,1010.750=150.000;
#STOPS:;
#BGCHANGES:;
// cache tags:
#FIRSTBEAT:3.000;
#LASTBEAT:1236.500;
#SONGFILENAME:Songs/Music V.I.P ^_^/The Last Journey Home/The Last Journey Home.sm;
#HASMUSIC:1;
#HASBANNER:1;
#MUSICLENGTH:495.704;
// end cache tags

//---------------dance-double - ----------------
#NOTES:
     dance-double:
     :
     Easy:
     3:
     0.041,0.045,0.006,0.016,0.000,131.000,3.000,8.000,0.000,0.000:
00000000
00000000
00000000
00000000
,
00000000
00000000
00000000
00000000
,
00000000
00000000
00000000
00000000
,
00000000
00000000
00000000
00000000
,
00100000
00000000
10000000
00000000
,
00100000
00000000
00010000
00001000
,
00000010
00000000
00000001
00000000
,
00000010
00000000
00001000
00010000
,
00002000
00000000
00000000
00003000
,
00020000
00030000
00001000
00001000
,
00010000
00000000
00100000
00000000
,
01000000
00000000
00100000
00000000
,
10000000
00000000
01000000
00000000
,
00010000
00000000
00001000
00000000
,
00000100
00000000
00000010
00000000
,
00000100
00000000
00000001
00000000
,
00000010
00000000
00001000
00000000
,
00010000
00000000
00011000
00000000
,
00010000
01000000
00010000
00000000
,
00001000
00000000
00001000
00000000
,
00001000
00000100
00001000
00000000
,
00010000
00000000
00010000
00000000
,
00001000
00000000
00000010
00000000
,
00000001
00000000
00000010
00000000
,
00001000
00001000
00000000
00010000
,
00010000
00000000
00011000
00000000
,
00010000
00100000
00010000
00100000
,
10000000
00000000
01000000
00010000
,
00001000
00000010
00001000
00000010
,
00000001
00000000
00000100
00001000
,
00010000
00000000
01000000
00000000
,
10000000
00000000
01000000
00000000
,
00010000
00000000
00001000
00000000
,
00000100
00000000
00001000
00000000
,
00020000
00000000
00001000
00030000
,
00020000
00000000
00000100
00030000
,
00020000
00000000
00000010
00030000
,
00020000
00000000
00001000
00031000
,
00010000
00100000
00000000
00100000
,
10000000
01000000
00000000
00100000
,
00010000
00001000
00000000
00000100
,
00000001
00000000
00000100
00000010
,
00001000
00000010
00000000
00000010
,
00000001
00000100
00000000
00000010
,
00001000
00010000
00000000
01000000
,
10000000
00000000
01000000
00100000
,
00010000
01000000
00000000
01000000
,
10000000
00100000
00000000
01000000
,
00010000
00001000
00000000
00000010
,
00000001
00000000
00000010
00000100
,
00001000
00000100
00000000
00000100
,
00000001
00000010
00000000
00000100
,
00001000
00010000
00000000
00100000
,
10000000
00000000
00100000
01000000
,
00001000
00000000
00010000
00000000
,
00022000
00000000
00000000
00033000
;

//---------------dance-double - ----------------
#NOTES:
     dance-double:
     :
     Medium:
     5:
     0.071,0.073,0.042,0.020,0.000,215.000,21.000,10.000,0.000,0.000:
00000000
00000000
00000000
00000000
,
00000000
00000000
00000000
00000000
,
00000000
00000000
00000000
00000000
,
00000000
00000000
00000000
00000000
,
00100000
00000000
10000000
00000000
01000000
00010000
00001000
00000000
,
00010000
00000000
00100000
00000000
10000000
00100000
00010000
00000000
,
00001000
00000000
00000010
00000000
00001000
00010000
00001000
00000000
,
00001000
00000010
00000001
00001001
,
00000200
00000000
00000000
00000300
,
00020000
00030000
00002000
00003000
,
00010000
00000000
00100000
00000000
10000000
00100000
10000000
00000000
,
00100000
00010000
00001000
00010000
,
00001000
00000000
00000010
00000000
00000001
00000010
00000001
00000000
,
00000010
00001000
00010000
00001000
,
00010000
01000000
10000000
00100000
,
00010000
00000000
00001000
00000000
00000100
00000010
00001000
00000000
,
00000100
00000001
00000010
00001000
,
00010000
00000000
00100000
00000000
00010000
00001000
00010000
00000000
,
00001000
00000010
00001000
00000000
00000010
00000000
00000001
00000000
,
00000010
00001000
00000010
00000000
00001000
00000000
00010000
00000000
,
00010000
01000000
00010000
00000000
01000000
00000000
10000000
00000000
,
01000000
00010000
01000000
00000000
00010000
00000000
00001000
00000000
,
00001000
00000010
00001000
00000000
00010000
00000000
01000000
00000000
,
00010000
00001000
00000010
00000001
,
00000100
00000101
00000010
00010010
,
00001000
00000000
00011000
00010000
,
00001000
00000010
00001000
00010000
,
01000000
00000000
00010000
00000000
00001000
00000010
00001000
00000000
,
00000010
00000011
00000001
00000100
,
00001000
00011000
00010000
00011000
,
00010000
01000000
00010000
00001000
,
00000010
00000000
00001000
00000000
00010000
01000000
00010000
00000000
,
01000000
11000000
10000000
00100000
,
00010000
00011000
00001000
00011000
,
00002000
00000000
00000010
00003010
,
00000020
00000000
00000001
00000031
,
00000002
00000103
00000200
00001300
,
00002000
00013000
00001000
00011000
,
00010000
00100000
00010000
00000000
00100000
00000000
10000000
00000000
,
01000000
10000000
00100000
00010000
,
00001000
00000010
00001000
00000000
00000010
00000000
00000001
00000000
,
00000100
00000001
00000010
00001000
,
00010000
00110000
00100000
10100000
,
10000000
11000000
01000000
01010000
,
00010000
00001000
00000100
00000001
,
00000100
00001000
00010000
00011000
,
00001000
00000100
00001000
00000000
00000100
00000000
00000001
00000000
,
00000010
00000001
00000100
00001000
,
00010000
01000000
00010000
00000000
01000000
00000000
10000000
00000000
,
00100000
10000000
01000000
00010000
,
00001000
00001100
00000100
00000101
,
00000001
00000011
00000010
00001010
,
00001000
00010000
00100000
10000000
,
00100000
00010000
00001000
00000100
,
00000001
00000100
00001000
00010000
,
00022000
00000000
00000000
00033000
;

//---------------dance-double - ----------------
#NOTES:
     dance-double:
     :
     Hard:
     8:
     0.085,0.077,0.016,0.008,0.018,283.000,8.000,4.000,0.000,0.000:
00000000
00000000
00000000
00000000
,
00000000
00000000
00000000
00000000
,
00000000
00000000
00000000
00000000
,
00000000
00000000
00000000
00000000
,
00100000
10000000
01000000
10000000
00000000
00010000
00100000
00000000
,
10000000
01000000
00010000
00000000
00001000
00000000
00000100
00000000
,
00000001
00000010
00000001
00000100
00000000
00000010
00001000
00000000
,
00000001
00000000
00000100
00000000
00000000
00001000
00000000
00000000
00010000
00000000
00001000
00000000
00000100
00000000
00001000
00000000
,
00020000
00000000
00000000
00000000
,
02030000
00000000
23000000
30000000
,
01000000
00000000
10000000
00000000
01000000
00000000
00000000
00000000
00100000
00000000
00000000
00010000
00000000
00000000
01000000
00000000
,
00100000
00000000
10000000
00000000
01000000
00000000
00000000
00000000
00010000
00000000
00000000
00001000
00000000
00000000
00000010
00000000
,
00000100
00000000
00000010
00000001
00000100
00000000
00000001
00000100
,
00001000
00000000
00000010
00001000
00000010
00000100
00001000
00000000
,
00010000
00000000
01000000
00000000
00010000
10000000
01000000
00000000
,
10000000
00000000
00010000
00100000
00010000
01000000
00010000
00000000
,
10000000
00000000
00010000
00000000
00001000
00010000
00001000
00000010
,
00000100
00000000
00000000
00000001
00000000
00000000
00000100
00000000
00000001
00000000
00000000
00001000
00000000
00000000
00000001
00000000
,
00000100
00000000
00000001
00000100
00001000
00000000
00010000
01000000
,
00100000
00000000
00010000
10000000
00010000
00000000
10000000
00100000
,
01000000
00000000
00010000
00100000
00000000
01000000
10000000
00000000
,
00100000
10000000
01000000
00000000
00100000
00010000
00100000
00001000
,
00010000
00000000
00000010
00001000
00000010
00000000
00000100
00000001
,
00000100
00000000
00000010
00000100
00000001
00000000
00000100
00000000
,
00001000
00000000
00000000
00010000
00000000
00000000
00100000
00000000
10000000
00000000
00000000
00010000
00000000
00000000
01000000
00000000
,
20000000
00000000
00000000
00000000
31000000
00000000
01000000
00010000
,
10000000
01000000
10000000
01000000
00000000
10000000
00000000
00010000
,
00000000
10000000
01000000
00000000
00010000
00000000
00011000
00000000
,
00000100
00001000
00000100
00001000
00000000
00000001
00000000
00001000
,
00000000
00000001
00000100
00000000
00001000
00000000
00011000
00000000
,
00100000
00010000
10000000
01000000
00000000
10000000
00000000
11000000
,
00000000
10000000
00010000
00000000
10000000
00000000
10100000
00000000
,
10000000
01000000
00010000
01000000
00000000
00010000
00001000
00000010
,
00000000
00000001
00001000
00000000
00000100
00000000
00001100
00000000
,
00000010
00000000
00000000
00000001
00000000
00000000
00000100
00000000
00000000
00000000
00001000
00000000
00000000
00010000
00000000
00000000
,
00100000
00000000
00000000
10000000
00000000
00000000
01000000
00000000
00000000
00000000
00010000
00000000
00000000
00001000
00000000
00000000
,
00000010
00000000
00000000
00000001
00000000
00000000
00000100
00000000
00000010
00000000
00000000
00001000
00000000
00000000
00000100
00000000
,
00000001
00000000
00000000
00000100
00000000
00000000
00001000
00000000
00000000
00000000
00000010
00000000
00000000
00010010
00000000
00000000
,
00001000
00010000
00001000
00010000
00000000
01000000
00000000
10000000
,
00000000
00010000
00100000
00000000
01000000
00000000
01100000
00000000
,
00010000
00001000
00010000
00001000
00000000
00000100
00000000
00000001
,
00000000
00001000
00000010
00000000
00001000
00000000
00001100
00000000
,
00010000
00000100
00010000
00000010
00010000
00001000
00000000
01000000
,
00000000
00100000
10000000
00100000
01000000
00000000
00010000
10000000
,
00010000
10000000
00000000
00010000
10000000
01000000
00000000
00010000
,
00001000
00000000
00010000
00000000
00000000
01000000
00000000
00000000
00010000
00000000
00000000
00001000
00000000
00000000
00000100
00000000
,
00000001
00000100
00000001
00000100
00000000
00000010
00000100
00000010
,
00000000
00000100
00000001
00000100
00001000
00000000
00010000
01000000
,
10000000
00000000
00010000
00100000
00010000
10000000
01000000
10000000
,
00000000
01000000
10000000
01000000
00010000
00000000
00001000
00000100
,
00000010
00000000
00000100
00000000
00000010
00000000
00000000
00001000
00000000
00000000
00000001
00000000
00000100
00000000
00001000
00000000
,
00000000
00010000
00100000
01000000
00010000
00000000
10000000
00100000
,
10000000
01000000
00100000
00010000
00000000
10000000
01000000
10000000
,
00000000
10000000
00010000
00000000
10000000
01000000
00010000
00001000
,
00010000
00001000
00000000
00000100
00000000
00000001
00000000
00001000
;

//---------------dance-double - ----------------
#NOTES:
     dance-double:
     :
     Challenge:
     1:
     0.001,0.011,0.000,0.002,0.000,1.000,0.000,1.000,0.000,0.000:
00000000
00000000
00000000
00000000
,
00000000
00000000
00000000
00000000
,
00000000
00000000
00000000
00000000
,
00000000
00000000
00000000
00000000
,
00000000
00000000
00000000
00000000
,
00000000
00000000
00000000
00000000
,
00000000
00000000
00000000
00000000
,
00000000
00000000
00000000
00000000
,
00000000
00000000
00000000
00000000
,
00000000
00000000
00000000
00000000
,
00000000
00000000
00000000
00000000
,
00000000
00000000
00000000
00000000
,
00000000
00000000
00000000
00000000
,
00000000
00000000
00000000
00000000
,
00000000
00000000
00000000
00000000
,
00000000
00000000
00000000
00000000
,
00000000
00000000
00000000
00000000
,
00000000
00000000
00000000
00000000
,
00000000
00000000
00000000
00000000
,
00000000
00000000
00000000
00000000
,
00000000
00000000
00000000
00000000
,
00000000
00000000
00000000
00000000
,
00000000
00000000
00000000
00000000
,
00000000
00000000
00000000
00000000
,
00000000
00000000
00000000
00000000
,
00000000
00000000
00000000
00000000
,
00000000
00000000
00000000
00000000
,
00000000
00000000
00000000
00000000
,
00000000
00000000
00000000
00000000
,
00000000
00000000
00000000
00000000
,
00000000
00000000
00000000
00000000
,
00000000
00000000
00000000
00000000
,
00000000
00000000
00000000
00000000
,
00000000
00000000
00000000
00000000
,
00000000
00000000
00000000
00000000
,
00000000
00000000
00000000
00000000
,
00000000
00000000
00000000
00000000
,
00000000
00000000
00000000
00000000
,
00000000
00000000
00000000
00000000
,
00000000
00000000
00000000
00000000
,
00000000
00000000
00000000
00000000
,
00000000
00000000
00000000
00000000
,
00000000
00000000
00000000
00000000
,
00000000
00000000
00000000
00000000
,
00000000
00000000
00000000
00000000
,
00000000
00000000
00000000
00000000
,
00000000
00000000
00000000
00000000
,
00000000
00000000
00000000
00000000
,
00000000
00000000
00000000
00000000
,
00000000
00000000
00000000
00000000
,
00000000
00000000
00000000
00000000
,
00000000
00000000
00000000
00000000
,
00000000
00000000
00000000
00000000
,
00000000
00000000
00000000
00000000
,
00000000
00000000
00000000
00000000
,
00000200
00000000
00000000
00000000
,
00000300
00000000
00000000
00000000
;

//---------------dance-single - ----------------
#NOTES:
     dance-single:
     :
     Challenge:
     13:
     1.000,1.000,0.587,0.964,1.000,2851.000,291.000,478.000,0.000,75.000:
0000
0000
0000
1001
,
0000
0000
0000
0000
,
0000
0000
0000
0000
1100
1100
1100
0000
,
0000
0000
0000
0000
,
1001
1001
2002
3003
0200
2300
3101
0101
,
0101
0000
0120
0000
,
0000
0000
0000
0000
2130
0000
3011
0011
,
0011
0011
0011
0011
0011
0011
0011
0011
,
0011
0011
0011
0011
0011
0011
0012
0000
,
0000
0003
0000
0000
0000
0000
0000
0000
,
0000
0000
0000
0000
0000
0000
1010
0100
,
0001
1100
0000
0010
1001
0000
1001
0010
,
0100
1010
0000
0001
1100
0000
2100
0000
,
0100
0001
0000
0000
3100
0000
1010
0100
,
0100
0000
1010
0000
0001
0000
0001
0000
1010
0000
0100
0000
0101
1000
0001
1000
,
0001
1000
0001
1000
0010
0010
0010
0010
0100
0100
0100
0100
1000
0001
1000
0010
,
1000
0010
1000
0001
0100
0010
0100
1000
0001
1000
0001
0100
0001
1000
0001
0100
,
0010
0100
1000
0100
0001
0010
1000
0100
0001
0010
0001
1000
0011
1000
0001
0010
,
0100
1000
0001
0010
0100
0010
1000
0100
1000
0100
1000
0100
0002
0000
0000
0000
,
0100
0100
0100
0023
,
0000
0000
0230
0000
0000
0000
0000
0000
2300
0000
0000
0000
3010
0010
0010
0010
,
0010
0010
0010
0010
0100
0100
0100
0100
0100
0100
0100
0100
0001
1000
0001
1000
,
0001
1000
0001
0100
1000
0010
1000
0010
1000
0010
1000
0010
0002
0010
0100
1000
,
0103
0010
0001
0010
0001
1000
0100
1000
0001
0010
0001
1000
0010
0100
0001
0100
,
0010
1000
0001
0100
0001
1000
0010
1000
0001
0100
0001
1000
0110
0001
0010
0100
,
0010
0100
1000
0100
0001
0010
1000
0100
0010
0100
0010
0001
1000
0000
1010
0000
,
0000
1001
0000
1100
0000
1010
0000
0110
,
0000
1001
0000
1010
0000
1010
0110
0100
,
1100
0100
1100
0100
1100
0100
1100
0100
,
1100
0100
1100
0100
1100
0100
0011
0010
,
0011
0010
0011
0010
0011
0010
0011
0010
,
0011
0010
0011
0010
0011
0010
2020
3030
,
1010
1000
1010
1000
1010
1000
1010
1000
,
1010
1000
1010
1000
1010
1000
0202
0303
,
0101
0000
0100
0000
0101
0000
0100
0000
0101
0000
0100
0000
0101
0000
1000
0010
,
1000
0010
1000
0010
1000
0000
0010
0000
0100
0100
0100
0000
1000
0000
0000
1000
,
0000
1000
0200
0000
0010
0300
0020
0000
,
0000
0000
1000
0000
0000
0000
0000
0000
1000
0000
0030
0000
1000
0000
0000
1000
,
0000
0000
1000
1000
0200
0000
0000
0000
0001
0000
0000
0300
0020
0000
0000
0000
,
0000
0000
1000
0000
0000
0000
0030
0000
0001
0010
0100
1000
0200
0300
0001
1000
,
0001
1000
0002
0000
1003
0010
1000
0010
2000
0000
0000
0000
3020
0000
0000
0000
,
0000
0000
0100
0000
0000
0000
0000
0000
2030
0000
0000
3000
0100
0000
0100
0000
,
0100
0100
0100
0100
0100
0100
1001
1001
,
1001
0000
1001
0000
1001
0000
1001
0000
1001
0000
1001
0000
1000
0000
0000
1000
,
0000
0000
0100
0000
0200
0000
0000
0000
0001
0000
0000
0300
0010
0000
0001
0100
,
0001
0100
0002
0000
0013
1000
0010
1000
0020
0000
1030
0001
0100
0000
0000
0100
,
0000
0000
0100
0000
0200
0000
0000
0000
1000
0000
0000
0300
0010
0000
1000
0100
,
1000
0100
2000
0000
3001
0010
0001
0010
0002
0000
0103
0010
2000
0000
0000
0000
,
0000
0010
0000
0000
0010
0000
3020
0000
,
0230
0000
2300
0000
0000
0000
0000
0000
0100
0000
0000
0000
3012
0100
1000
0100
,
1000
0100
1000
0100
0010
0100
0010
0100
0010
0100
1000
0100
0013
1000
0001
1000
,
0001
1000
0010
1000
0001
1000
0001
1000
0001
1000
0001
1000
0220
0000
0000
0000
,
0000
0000
0330
0000
1000
0100
0010
0001
0010
0100
1000
0000
1000
0100
0010
0001
,
0010
0100
1000
0000
1000
0100
0010
0001
0010
0100
1000
0000
1000
0100
0010
0001
,
0010
0100
1000
0100
1000
0100
0010
0001
0010
0100
1000
0100
1000
0100
0010
0001
,
0010
0100
1000
0100
1000
0100
0010
0001
0010
0100
1000
0100
1000
0100
0010
0002
,
0000
0000
0103
0000
1000
0100
0010
0001
0010
0100
1000
0100
1000
0100
0010
0001
,
0010
0100
1000
0100
1000
0100
0010
0001
0010
0100
1000
0100
1000
0100
0010
0001
,
0010
0100
1000
0100
1000
0100
0010
0001
0020
0000
0000
0130
1000
0100
0010
1000
,
0100
0000
0010
0000
1000
0000
0100
0000
1000
0000
0100
0000
0010
0000
1000
0000
0100
0000
0010
0000
1000
0000
0100
0000
0002
0010
1003
0100
0001
0010
2000
0100
,
3001
0100
0010
1000
0002
0100
0013
1000
0001
0100
0020
1000
0130
0001
0100
1000
0020
0100
1030
0001
0020
0100
1030
0001
0020
0100
1030
0001
0010
0100
2000
0010
,
3001
0010
0100
1000
0200
0010
0301
0010
0100
0010
0002
0000
0003
0000
0000
0000
0000
0000
0000
0000
0000
0000
0000
0000
1002
0000
0003
0000
1000
0000
0010
0000
,
0100
0000
0210
0300
0001
1000
0001
0000
0120
0030
1000
0000
0210
0300
0001
1000
,
0100
0000
0021
0030
1000
0001
0100
0000
1020
0000
0000
0000
0132
0000
0000
0000
,
1000
0100
0000
0010
0100
0000
2103
0000
,
0100
0000
0001
0000
0000
0000
0100
0000
0001
0000
0000
0000
3102
0003
0010
1000
,
0001
0000
0120
0030
0001
0100
1000
0000
0101
0000
0010
0000
1100
0000
0002
0010
,
2003
0000
3021
0000
0100
1000
0100
0030
1002
0000
0000
0003
0120
0000
0000
0000
,
1000
0001
0000
0001
1000
0000
1230
0000
,
0010
0000
0001
0000
1000
0001
1000
0001
1000
0001
1000
0000
2310
3000
0001
0100
,
0001
0000
1020
0030
0100
0001
0010
0000
2100
3000
0010
0000
0201
0300
1000
0001
,
0010
0000
2001
3000
0010
0100
1000
0000
0201
0000
0000
0000
0312
0000
0000
0000
,
0010
1000
0000
1000
0100
0000
2103
0000
,
0010
0000
0001
0000
0000
0000
0010
0000
0100
0000
0000
0000
3012
0003
1000
0100
,
0001
0000
1200
0300
0001
1000
0100
0000
0011
0000
1000
0000
0101
0000
2000
0100
,
3002
0000
1023
0000
1000
0001
1000
0000
2031
0000
0000
0000
3201
0000
0000
0000
,
1000
0010
0000
0001
0010
0000
1320
0000
,
0100
0000
1000
0000
0000
0000
1000
0000
0001
0000
0000
0000
1130
0000
0001
1000
,
0010
0000
1100
0000
0010
0001
1000
0000
0110
0000
0001
0000
0110
0000
2000
0000
,
3000
0000
0002
0000
0023
0000
0230
0000
2300
0000
3020
0030
0202
0303
1000
0010
,
1000
0001
0220
0330
1000
0100
0010
0001
2020
3030
0001
0010
0100
1000
0220
1330
,
0100
0000
1000
0000
0100
0000
1000
0000
0101
0000
0000
0000
0000
0000
0110
0000
0000
0000
0000
0000
1010
0000
0000
0000
0000
2200
0000
0000
0000
0000
0000
0000
,
0000
0000
0000
0000
0000
0000
0000
3300
,
1002
0000
0000
0023
0000
0000
0230
0000
,
2300
0000
0000
0000
0000
3000
0100
0100
,
0020
0000
0030
0020
0000
0030
0020
0000
,
0031
0010
0100
2000
0000
0000
0000
0000
0000
0000
0000
0000
0000
0000
3000
0000
,
1002
0000
0000
0023
0000
0000
0230
0000
,
2300
0000
0000
0000
0000
3000
0100
0100
,
0021
0000
0000
0230
0000
0000
2300
0000
,
3102
0000
0000
0000
0000
0000
0000
0003
,
1002
1010
0000
0023
0000
0000
0230
0000
,
2300
0000
0000
0000
0000
3000
0100
0100
,
0020
0000
0000
0230
0000
0000
0320
0000
,
0031
0000
0010
0000
0100
0000
0000
2000
0000
0000
0000
0000
0000
0000
0000
0000
0000
0000
0000
0000
0000
0000
0000
0000
0000
0000
0000
0000
3000
0000
0000
0000
,
1002
1100
0000
0023
0000
0000
0230
0000
,
2300
0000
0000
0000
0000
3000
0100
0100
,
0022
0000
0000
0000
0033
0000
0220
0000
0000
0000
0330
0000
2020
0000
0000
3030
,
2001
3020
0030
2000
3020
0030
1000
1000
,
1000
1000
1000
1000
1000
1000
1000
1000
,
2000
3020
0030
2000
3020
0030
1000
1000
,
1000
1000
0020
0030
0002
0003
0200
0300
,
2000
3020
0030
2000
3020
0030
1000
1000
,
1000
0000
1000
0000
1000
0100
1000
0000
1000
0000
1000
0000
1000
0100
1000
0000
,
2000
3020
0030
2000
3020
0030
1000
0100
,
0001
0010
0100
1000
0001
0010
0100
1000
,
2001
0000
0100
0000
,
3020
0000
0001
0000
,
1000
0000
0100
0000
,
0230
0000
0001
0000
,
2300
0000
0001
0000
,
0100
0000
0000
0000
0010
0000
3200
0320
,
1032
0100
1000
0100
0000
0000
0010
1000
0000
0000
0010
0100
0010
0100
0000
0000
,
1000
0010
1000
0010
1000
0010
1000
0010
1000
0010
1000
0010
1100
0000
0003
0000
,
2100
0000
0100
0000
,
3002
0000
0000
0000
0100
0000
0000
1000
,
1000
0000
0100
0000
,
1000
0000
0000
0000
0100
0000
0023
0230
,
2300
3002
0023
0000
1000
0000
0000
0000
,
0100
0000
0000
0000
0001
0000
0032
0023
,
0230
0000
2300
3000
2000
0000
0000
0000
0000
0000
0000
0000
3200
0000
0320
0000
,
2031
0100
0001
0100
0001
0010
0100
0010
0100
0010
0100
0010
0100
0010
3100
0010
,
0101
1000
0100
0010
1000
0100
0001
0100
,
1000
0010
0100
1000
0001
0010
1000
0100
,
0002
1003
0010
0200
0320
0031
1000
0010
,
1000
0100
0010
0100
0002
0023
0230
2300
,
3200
0302
1003
0002
0203
0301
1000
0010
,
0100
0010
0001
1000
0100
0010
1000
0010
,
1000
0100
1000
0100
1000
0100
1000
0100
1000
0100
1000
0100
1000
0100
1000
0100
,
2000
3200
0320
0032
0023
0230
2300
3200
,
1300
0010
1000
0001
0010
0001
1000
0100
1000
0001
0100
0001
1000
0010
1000
0001
,
1000
0001
0100
0010
0100
0001
1000
0001
1000
0010
1000
0001
0100
0001
0010
0100
,
1010
1010
1010
1010
,
0101
0000
0101
0000
0101
0000
0020
0230
,
1301
0010
0100
1000
0010
0100
0001
0010
0100
1000
0001
1000
0100
0010
0001
0100
,
0010
1000
0100
0010
0001
0010
0100
1000
0100
0010
0001
0010
0100
1000
0001
1000
,
0102
0100
0100
0100
,
2103
0000
0010
0010
0000
0010
0010
0000
,
3001
0100
0001
1000
0001
1000
0010
0100
0010
1000
0010
0100
0001
1000
0010
0100
,
0001
0100
0010
1000
0010
0100
0001
1000
0010
0100
0010
0100
0001
1000
0010
0100
,
2000
3010
0001
0200
1300
0020
2030
3002
,
0203
1300
0001
0020
0130
0001
2000
3200
,
2300
3001
0010
0001
1000
0001
0020
1030
0100
0001
0010
0001
0200
1300
0001
0010
,
0200
0301
1000
0010
0100
1000
0020
1030
0001
0100
0010
0100
2000
0000
3020
0000
,
0231
0001
0001
0001
,
2310
0010
0010
0010
,
3101
0000
1000
0100
0010
0100
2000
0000
3200
0000
0301
0010
0100
1000
0200
0000
,
0320
0000
1030
0010
0100
0001
2000
0000
3020
0000
0130
0001
0010
0100
2000
0000
,
3200
0000
0301
1000
0010
0100
2000
0000
3020
0000
1030
0001
0100
0010
2000
0000
,
3001
0010
0100
1000
0001
0010
0100
1000
0001
0010
0100
1000
0001
0010
0100
1000
,
0010
1000
0010
1000
0010
1000
0010
1000
0010
1000
0010
1000
0010
1000
0010
1000
,
0010
1000
0010
1000
0010
1000
0010
1000
0010
1000
0010
1000
0010
1000
0010
1000
,
0010
0100
0010
0100
0010
0100
0010
0100
0010
0100
0010
0100
0010
0100
0010
0100
,
0010
0100
0010
0100
0010
0100
0010
0100
0010
0100
0010
0100
0010
0100
0010
0100
,
1000
0001
1000
0001
1000
0001
1000
0001
1000
0001
1000
0001
1000
0001
1000
0001
,
1000
0001
1000
0001
1000
0001
1000
0001
1000
0001
1000
0001
1000
0001
1000
0001
,
0001
0001
0001
0001
0010
0010
0010
0010
0100
0100
0100
0100
1000
1000
1000
1000
,
0001
0010
0100
1000
0100
0010
0001
0010
0100
1000
0100
0010
0001
0010
0100
1000
,
0201
1000
0001
1000
0001
1000
0001
1000
0001
1000
0001
1000
0001
1000
0001
1000
,
0001
1000
0001
1000
0001
1000
0001
1000
0001
1000
0001
1000
0001
1000
0301
1000
,
0120
1000
0100
1000
0100
1000
0100
1000
0100
1000
0100
1000
0100
1000
0100
1000
,
0100
1000
0100
1000
0100
1000
0100
1000
0100
1000
0100
1000
0100
1000
0130
1000
,
0200
0000
0000
0000
0312
1000
0010
1000
0010
1000
0010
1000
0010
1000
0010
1000
,
0010
1000
0010
1000
0010
1000
0010
1000
0010
1000
0010
1000
0010
1000
0010
1000
,
0203
0000
2310
0100
0010
0100
0010
0100
0010
0100
0010
0100
0010
0100
0010
0100
,
0010
0100
0010
0100
0010
0100
0010
0100
0010
0100
0010
0100
0010
0100
3010
0100
,
0020
0000
0000
0230
0000
0000
2300
0000
0000
0000
0000
0000
0000
0000
0000
0000
,
3200
0000
2300
0000
0000
3000
2000
0000
0000
0000
3020
0000
0000
0000
0000
0030
,
0001
0100
0010
0100
1000
0010
0100
1000
0100
0010
1000
0100
0010
0100
0010
0001
,
0020
0000
0000
0230
0000
0000
2300
0000
3020
0000
0000
0000
0032
0000
0000
0003
,
0001
0010
0100
1000
0100
0010
0100
1000
0100
0010
0100
0010
0001
0010
0100
1000
0100
0010
0001
0010
0100
1000
0010
0100
,
0001
0010
0100
1000
0100
0010
0100
1000
0100
0010
0100
1000
0100
0010
0001
0010
0100
0010
0001
0010
0100
1000
0100
0010
,
0001
0001
0100
0100
0001
0001
0010
0010
0100
0100
1000
1000
0100
0100
1000
1000
,
0001
1000
0001
1000
0001
1000
0001
1000
0001
1000
0001
1000
0001
1000
0001
1000
,
0200
0000
0000
0320
0000
1030
0200
0000
0000
0000
2300
0000
3200
0000
0320
0000
,
0032
0000
0103
2000
0000
3010
0002
0000
0000
0000
0000
0000
0000
0000
0000
0003
,
1000
0100
1000
0100
0001
0010
0100
1000
0010
1000
0010
1000
0100
1000
0100
0010
,
0100
1000
0100
0010
0100
1000
0100
0010
0100
1000
0100
0010
0002
0000
0000
0003
,
0001
0010
0100
1000
0100
1000
0001
1000
0001
0010
0100
1000
0100
1000
0001
1000
,
0010
1000
0010
1000
0010
1000
0100
1000
0100
1000
0100
0010
0001
0010
0100
0010
,
0001
0010
0100
1000
0100
1000
0001
0010
0100
0010
0001
0010
0001
0100
0001
0010
,
0100
1000
0100
0010
1000
0010
1000
0100
1000
0010
1000
0010
0100
1000
0100
0001
,
0020
0000
0000
0000
0000
0000
0000
0030
1000
0000
0100
0000
1000
0000
0010
0000
1000
0000
0100
0000
1000
0000
0010
0000
0001
0000
0100
0000
0010
0000
0001
0010
,
0100
0001
0100
0010
0001
0010
0001
0010
1000
0100
1000
0010
0100
1000
0100
0010
,
0001
0010
0200
0000
0000
0000
0301
0000
0020
0000
0000
0000
0031
0000
0010
0000
0200
0000
0000
0000
0310
0000
2000
0000
0000
0000
0000
0000
3200
0000
0000
0000
,
0301
0010
0001
0010
0001
0010
0001
0010
0001
0010
0001
0010
0001
0100
0001
0100
0001
0100
0001
0100
0001
0100
0001
0100
,
0002
0000
0000
0023
0000
0000
0230
0300
0200
0000
0000
0300
2000
0000
0000
3000
,
1000
0100
1000
0100
1000
0010
1000
0010
1000
0001
1000
0001
1000
0010
1000
0010
,
2000
0000
0000
3200
0000
0000
0310
0100
2000
0000
3020
0000
0230
0000
1300
0010
,
1000
0010
1000
0010
1000
0010
1000
0010
1000
0010
1000
0010
1000
0010
1000
0010
,
1000
1000
1000
1000
0100
0100
0100
0100
0010
0010
0010
0010
0001
0001
0020
0000
,
0230
0000
2300
3002
0000
0000
0203
2300
,
3200
0000
0000
0320
0000
0000
0230
0000
0320
0000
0000
2030
0000
0000
3200
0000
,
0320
0000
0000
0000
0230
0000
0000
0000
2300
0000
0000
0000
3002
0000
0000
0003
,
0001
0010
0001
0100
0001
1000
0010
0100
0010
1000
0010
1000
0100
1000
0100
0010
,
0100
1000
0100
0010
0100
1000
0100
0010
0001
0010
0100
0010
0002
0000
0000
0003
,
0001
0000
0000
0010
0000
0000
0100
0000
0000
1000
0000
0000
0010
0000
0000
0100
0000
0000
1000
0000
0000
0000
0100
0000
0000
0000
1000
0000
0000
0000
0100
0000
0000
0010
0000
0000
0100
0000
0000
1000
0000
0000
0100
0000
0000
1000
0000
0000
,
0010
0000
0000
0000
0000
0000
1000
0000
0000
0000
0000
0000
0010
0000
0000
0000
0000
0000
1000
0000
0000
0000
0000
0000
0010
0000
0000
0000
0000
0000
0000
0000
0000
0000
0000
0000
0100
0000
0000
0000
0000
0000
0000
0000
0000
0000
0000
0000
0001
0000
0000
0000
0000
0000
0000
0000
0010
0000
0000
0000
0000
0000
0000
0000
0100
0000
0000
0000
0000
0000
0000
0000
1000
0000
0000
0000
0000
0000
0000
0000
0000
0000
0000
0000
0100
0000
0000
0000
0000
0000
0000
0000
0000
0000
0000
0000
0001
0000
0000
0000
0000
0000
0000
0000
0010
0000
0000
0000
0000
0000
0000
0000
0100
0000
0000
0000
0000
0000
0000
0000
1000
0000
0000
0000
0000
0000
0000
0000
0000
0000
0000
0000
0100
0000
0000
0000
0000
0000
0000
0000
0000
0000
0000
0000
0001
0000
0000
0000
0000
0000
0000
0000
0010
0000
0000
0000
0000
0000
0000
0000
0100
0000
0000
0000
0000
0000
0000
0000
1000
0000
0000
0000
0000
0000
0000
0000
0000
0000
0000
0000
0100
0000
0000
0000
0000
0000
0000
0000
0000
0000
0000
0000
,
0002
0000
0000
0023
0000
0000
0230
0000
,
2300
0000
0001
0000
0000
0000
0001
0000
0000
3000
1000
0000
0100
0000
0010
0000
,
0002
0000
0000
0023
0000
0000
0230
0000
,
0302
0000
0010
0000
0000
0000
0010
0000
0000
0000
0010
0000
0000
0000
0010
0003
,
1000
0100
1000
0010
1000
0001
1000
0100
1000
0010
1000
0001
1000
0100
1000
0010
,
1000
0100
0010
0001
0010
0100
1000
0100
0010
0001
0010
0100
1000
0100
0010
0001
0010
0100
1000
0100
0010
0001
0010
0100
,
1000
0000
0010
0000
1000
0000
0010
0000
1000
0000
0010
0000
1000
0000
0010
0000
1000
0000
0010
0000
1000
0000
0010
0000
1000
0000
0000
0100
0000
0000
0010
0000
0000
0001
0000
0000
0010
0000
0000
0100
0000
0000
1000
0000
0000
0100
0000
0000
,
0020
0000
0000
0230
0000
2300
0000
0000
3200
0000
0000
0000
2300
0000
0000
0000
,
3001
0100
0001
0100
0001
0100
0001
0100
0010
1000
0010
1000
0010
1000
0010
1000
,
0010
0100
0010
0100
0010
0100
0010
0100
1000
0100
0010
0001
0010
0100
1000
0100
,
1000
0010
1000
0010
1000
0001
1000
0001
0100
0001
0100
0010
0001
0010
0001
0010
,
0001
0010
0100
1000
0100
0010
0001
0010
0100
1000
0001
0010
0100
1000
0010
0100
,
1000
0100
0010
0001
0010
0001
0010
0100
0010
0100
0010
0100
1000
0010
1000
0010
,
1000
0100
1000
0100
1000
0100
0010
0100
1000
0100
0010
0100
2000
0000
0000
3000
,
1000
0010
1000
0010
0000
0000
1000
0010
1000
0010
0000
0000
1000
0010
0000
0000
,
1001
0100
0100
0100
1001
0100
0100
0100
,
1002
0100
1000
0023
0001
1000
0230
0001
,
0320
1000
0001
2030
0010
0001
0100
0010
,
3200
0001
1000
0320
0001
1000
0230
0001
,
0302
1000
0010
0100
1000
0010
0100
0010
,
0023
1000
0001
1000
0100
0001
1000
0001
,
2030
0100
0001
0010
0100
0001
0100
0010
,
3200
0001
1000
0010
1000
0001
0010
1300
,
0010
1000
0010
1000
0010
1000
0010
1000
0010
1000
0010
1000
0010
1000
0010
1000
,
0011
0100
1000
0100
0010
0001
1000
0100
1000
0001
0010
0001
1000
0010
1000
0001
,
0100
0001
1000
0010
1000
0001
0100
0001
1000
0100
1000
0001
0100
0001
1000
0010
,
1100
0001
0010
1000
0100
0001
0010
1000
0100
0010
0001
0100
1000
0010
0001
0100
,
1000
0010
0001
0010
0100
1000
0100
0001
0010
1000
0100
0001
0010
1000
0100
0010
,
1001
0010
0100
1000
0001
0010
0100
1000
0001
0010
0100
1000
0001
0010
0100
1000
,
0110
1000
0100
0010
0001
1000
0100
0010
0001
1000
0100
0010
0001
1000
0100
0010
,
1001
0010
1000
0100
0001
0010
1000
0100
0001
0010
1000
0100
0001
0010
1000
0100
,
0001
1000
0100
0010
0001
0010
0100
1000
0100
0010
0001
0010
0100
1000
0100
0010
,
0001
0010
0100
0001
0010
0100
0001
0010
0100
0001
0010
0100
0001
0010
0100
0001
,
0010
0100
1000
0010
0100
1000
0010
0100
1000
0010
0100
1000
0010
0100
1000
0010
,
0100
1000
0100
1000
0100
1000
0010
1000
0100
1000
0001
0100
1000
0100
0010
0001
,
0010
1000
0010
0001
0010
1000
0010
0001
0010
0100
0010
0001
0010
0100
1000
0100
,
0020
0000
0000
0230
0000
0000
0320
0000
2030
0000
0100
3002
0100
0000
2103
0000
,
3120
0000
0000
0230
0000
0000
0320
0000
0000
0000
0000
0000
0000
0000
1000
0000
,
1000
0000
0032
0023
0230
0300
0200
0300
2010
0000
0000
3020
0230
0000
2300
3200
,
0321
0230
2300
0000
0000
0000
0000
0000
0000
0000
0000
0000
0000
0000
0000
3000
,
0210
0000
0000
0320
0000
0000
2030
0000
0000
0000
0001
0001
0001
3000
0210
2300
,
3200
0000
0000
0320
0000
0000
0032
0000
0000
0000
0000
0000
0000
0003
1002
0023
,
1230
0000
0000
2300
0000
0000
3200
0000
2301
0000
0000
3200
0000
0000
2300
0000
,
3102
0023
0230
0000
0000
0000
0000
0000
0000
0000
0000
0000
0000
0000
0000
0000
,
0000
0000
0300
0000
0000
0000
0000
0000
1000
0100
0010
0001
0000
0100
1000
0000
,
0001
0010
0100
1000
0000
0010
1000
0010
1000
0100
0010
0001
0010
0100
1000
0000
,
0001
0010
0100
1000
0000
0100
1000
0100
1000
0100
0010
0001
0000
0100
1000
0000
,
0100
0010
0001
0010
0100
0010
0100
1000
0100
0010
0200
0000
0000
0000
0000
0000
,
0000
0000
0000
0000
0000
0000
0000
0000
0300
0000
0000
0200
0000
0000
0000
0000
,
0000
0000
0000
0320
0000
0000
0000
0000
0000
0000
0000
2030
0000
0000
0000
0000
,
0000
0000
0000
0000
0000
0000
0000
0000
0000
0000
0000
3020
0000
0000
0000
0000
,
0000
0000
0000
2030
0000
0000
0000
0000
0000
0000
0000
3020
0000
0000
0000
0000
,
0000
0000
0000
0000
0000
0000
0000
0100
0000
0100
0000
0230
0000
0000
0000
0000
,
0000
0000
0000
0320
0000
0000
0000
0000
0000
0000
0000
0032
0000
0000
0000
0000
,
0000
0000
0000
2003
0000
0000
0000
0000
3000
0000
0000
2002
0000
0000
0000
0000
,
0000
0000
0000
0000
,
0000
0000
0000
0000
0000
0000
0000
0000
0000
3003
0000
0022
0000
0000
0000
0000
,
0000
0000
0000
0000
0000
0033
0000
1100
0000
1100
0000
2002
0000
0000
0000
0000
,
3003
2020
0000
0000
0000
0000
3030
2200
0000
0000
3300
2002
0000
0000
0000
0000
,
0000
0000
0000
0000
,
0000
0000
0000
0000
0000
0000
0000
0000
0000
0000
3003
0022
0000
0000
0000
0000
,
0000
0000
0000
0000
0000
0033
0000
1100
0000
1100
0000
2002
0000
0000
0000
3003
,
0000
2020
0000
0000
0000
3030
0000
2200
0000
3300
0000
0201
1300
0010
0100
1000
,
0010
0002
0103
1000
0010
0001
0100
2000
3010
0100
0001
0010
1000
0020
0130
0001
,
0010
1000
0100
0020
0031
1000
0100
0020
0031
1000
0100
0020
0031
1000
0100
0010
,
1000
0002
0103
0010
1000
0100
0001
0020
0130
0001
0010
1000
0100
2000
3000
0000
,
0000
0000
0000
0000
0000
0000
0000
0000
0000
0000
0000
1002
0003
1000
0010
0100
,
0000
0210
0300
0001
1000
0001
0000
0120
0030
1000
0000
0210
0300
0001
1000
0100
,
0000
0011
0000
1000
0001
0100
0000
1020
0000
0000
0000
0132
0000
0000
0000
1000
,
0000
0100
0000
0000
0000
0010
0000
0100
0000
0000
0000
2103
0000
0000
0000
0100
,
0000
0001
0000
0000
0000
0100
0000
0001
0000
0000
0000
3201
0300
0010
1000
0001
,
0000
0120
0030
0001
0100
1000
0000
0101
0000
0010
0000
1100
0000
0002
1000
0203
,
0000
0312
0000
0100
0010
1000
0000
0213
0000
0000
0000
1320
0000
0000
0000
1000
,
0000
0001
0000
0000
0000
0001
0000
1000
0000
0000
0000
1230
0000
0000
0000
0010
,
0000
0001
0000
1000
0001
1000
0001
1000
0001
1000
0000
2310
3000
0001
0100
0001
,
0000
1020
0030
0100
0001
0010
0000
2100
3000
0010
0000
0201
0300
1000
0001
0010
,
0000
2001
3000
0010
0100
1000
0000
0201
0000
0000
0000
0312
0000
0000
0000
0010
,
0000
1000
0000
0000
0000
1000
0000
0100
0000
0000
0000
2103
0000
0000
0000
0010
,
0000
0001
0000
0000
0000
0010
0000
0100
0000
0000
0000
3012
0003
1000
0100
0001
,
0000
2100
3000
0001
1000
0100
0000
0011
0000
1000
0000
0101
0000
2000
0100
3002
,
0000
2013
0000
0100
0001
0100
3000
0020
0000
0000
0000
0231
0000
0000
0000
1000
,
0000
0010
0000
0000
0000
0001
0000
0010
0000
0000
0000
1302
0100
1000
0100
1000
,
0100
0010
0100
0010
0100
0010
0100
0010
0100
0010
0103
1002
0003
1000
0010
0100
,
0000
0210
0300
0001
1000
0001
0000
0120
0030
1000
0000
0210
0300
0001
1000
0100
,
1000
0021
0030
1000
0001
0100
0001
0100
1000
0100
0010
0102
0000
0000
0000
1000
,
0000
0100
0000
0000
0000
0010
0000
0100
0000
0000
0000
2103
0000
0000
0000
0100
,
0000
0001
0000
0000
0000
0100
0000
0001
0000
0000
0000
3201
0300
0010
1000
0001
,
0000
0120
0030
0001
0100
1000
0000
0101
0000
0010
0000
1100
0000
0020
1000
0230
,
0000
0312
0000
0100
0010
1000
0000
0213
0000
0000
0300
0120
0000
0000
0000
1000
,
0000
0001
0000
0000
0000
0001
0000
1000
0000
0000
0000
1230
0000
0000
0000
0010
,
0000
0001
0000
1000
0001
1000
0001
1000
0001
1000
0000
1320
0030
0001
0100
0001
,
0000
1020
0030
0100
0001
0010
0000
2100
3000
0010
0000
0201
0300
1000
0001
0010
,
0000
1002
0003
0010
0100
1000
0000
0100
1000
0100
0010
0102
0000
0000
0000
0010
,
0000
1000
0000
0000
0000
1000
0000
0100
0000
0000
0000
2103
0000
0000
0000
0010
,
0000
0001
0000
0000
0000
0010
0000
0100
0000
0000
0000
3021
0030
1000
0100
0001
,
0000
1200
0300
0001
1000
0100
0000
0011
0000
1000
0000
0101
0000
2000
0100
3002
,
0000
2013
0000
0100
0001
0100
0000
3021
0000
0000
0000
0231
0000
0000
0000
1000
,
0000
0010
0000
0000
0000
0001
0000
0010
0000
0000
0000
1320
0000
0000
0000
0100
,
0000
1000
0000
0000
0000
1000
0000
0001
0000
0000
0000
2130
3000
0001
1000
0010
,
0000
2100
3000
0010
0001
1000
0000
0210
0300
0000
0001
0010
0000
2100
3010
0001
,
0010
0100
1000
0100
0010
0001
0010
0100
1000
0100
0001
0220
0000
0000
0000
0000
,
0000
0000
0000
0000
0000
0000
0000
0000
0000
0330
0000
2020
0000
0000
0000
0000
,
0000
0000
0000
0000
0000
0000
0000
0000
0000
3030
0000
1001
0000
0010
1000
0100
,
0000
0000
0000
0101
0000
0000
0000
0000
0000
1000
0000
0000
0001
0000
0000
0100
0000
0000
0000
0000
0000
1010
0000
0000
0000
0000
0000
0001
0000
0000
0000
0000
0000
1001
0000
0010
0000
0100
0000
1001
0000
0000
0000
0000
0000
0010
0000
0000
,
0000
1001
1001
0000
0100
0100
0000
0001
1000
0001
1000
0102
0000
0000
0000
0000
,
0000
0123
0000
0000
0000
0000
0000
1230
0000
0000
0000
0000
0000
1000
0000
1000
,
0000
0000
0000
1000
0000
1300
0000
0200
0000
0320
0000
1032
0000
0000
0000
0000
,
0000
1023
0000
0000
0000
0000
0000
2031
0000
0000
0000
0001
0010
0001
0010
0001
,
0010
0000
0000
0001
0000
0000
0010
0000
0000
0001
0000
0000
0010
0000
0000
0001
0000
0000
0010
0000
0000
0001
0000
0010
0000
0100
0000
3010
0000
0001
0000
0010
0000
1200
0000
0000
0000
0000
0000
0000
0000
0000
0000
0000
0000
0000
0000
0000
,
0000
0321
0000
0000
0000
0000
0000
1032
0000
0000
0000
0000
0000
0123
0000
0000
,
0000
0000
0000
1230
0000
0000
0000
0311
0000
1100
0000
0011
0000
1100
0000
0022
,
0000
0033
0000
0000
0000
0000
0000
0000
;
